#TITLE:Danh Quen;
#SUBTITLE:;
#ARTIST:Truc Duy;
#TITLETRANSLIT:Danh Quen;
#SUBTITLETRANSLIT:;
#ARTISTTRANSLIT:Truc Duy;
#CREDIT:;
#BANNER:Danh Quen-bn.png;
#BACKGROUND:Danh Quen-bg.png;
#LYRICSPATH:;
#CDTITLE:pm4cd.png;
#MUSIC:Danh Quen.mp3;
#OFFSET:0.000;
#SAMPLESTART:90.360;
#SAMPLELENGTH:20.000;
#SELECTABLE:YES;
#BPMS:0.000=160.000,805.500=80.000;
#STOPS:;
#BGCHANGES:0.000=Danh Quen.avi=1.000=1=0=0,
99999=-nosongbg-=1.000=0=0=0 // don't automatically add -songbackground-
;
// cache tags:
#FIRSTBEAT:0.500;
#LASTBEAT:809.000;
#SONGFILENAME:Songs/Music V.I.P ^_^/Danh Quen/Danh Quen.sm;
#HASMUSIC:1;
#HASBANNER:1;
#MUSICLENGTH:307.440;
// end cache tags

//---------------dance-single - ----------------
#NOTES:
     dance-single:
     :
     Hard:
     17:
     1.000,1.000,1.000,0.159,0.812,1753.000,366.000,49.000,0.000,115.000:
0000
0200
0000
0000
0000
0000
0000
0000
,
0000
0000
0000
0000
,
0311
1000
0010
0011
,
1100
0001
0100
1000
,
0101
0010
0100
1001
,
0110
0000
1000
0010
1100
0000
1000
0000
,
0011
0100
0010
0011
,
0101
0010
0100
1000
,
1010
1000
0100
1200
,
0021
0000
0000
1000
0001
1300
0001
1000
,
1131
0010
0001
0010
0100
0010
1100
0001
,
0110
0001
1000
0010
0101
1000
0100
1000
,
0110
0001
0100
1000
0011
0100
1010
0100
,
1001
0100
0010
0001
0010
0100
1000
0100
,
1011
0100
0010
0001
1010
0100
0011
0100
,
1001
0010
0100
1000
0101
0010
1000
0100
,
1001
0010
0100
1001
0110
0001
0110
1000
,
0101
0010
0001
0100
0010
0100
0010
0100
,
1011
1000
0010
0100
1001
0010
1100
0010
,
0101
1000
0100
0010
0100
1000
0010
0001
,
1110
0001
1000
0100
1010
0001
0110
1000
,
0101
0010
0100
1000
0101
0010
0100
1000
,
0111
1000
0010
0001
0110
1000
0101
0010
,
1100
0010
0001
0010
0101
1000
0100
0010
,
1100
0010
0001
0110
1001
0010
0100
1000
,
0110
0001
0010
0100
2000
0100
0010
0100
,
0012
0000
0000
0000
,
0000
0110
3113
0000
1001
1001
1110
0000
,
2222
3333
0100
1001
,
0101
0010
0100
1000
,
0110
1000
0100
1010
,
0101
0000
0000
1010
0101
0000
0010
0000
,
1100
0010
0001
0110
,
1010
0100
0001
0100
,
0011
0100
0010
1001
,
0101
0000
0000
1010
0101
0110
1001
0000
,
1111
1000
0010
1100
,
1001
0100
0010
0100
,
0011
0100
0001
1010
,
1100
0001
0010
0010
0001
0000
0100
0000
,
1001
0100
1000
0011
,
1100
0001
0010
1000
,
1101
0000
0000
1100
1001
0000
0100
0000
,
1001
0000
0100
0000
0020
0000
0001
0000
0200
0000
0001
0000
2000
0000
0001
3330
,
1111
1000
0010
0101
,
1001
0010
0100
0001
,
1100
0010
1000
0110
,
1001
0000
0000
1100
0011
0000
0010
0000
,
1200
0010
1000
0011
,
1310
0100
0010
0001
,
1100
0010
0001
1010
,
0101
0000
0000
1010
0101
1001
0110
0000
,
1002
0010
1000
0110
,
1013
0100
0001
0010
,
1001
0100
0010
1001
,
0110
0001
1000
0000
0001
0000
0010
0000
,
1101
0010
1000
0011
,
0110
1000
0010
0001
,
1110
0000
0000
0110
0101
0000
0110
0000
,
2002
0110
0100
0010
,
3113
0000
0000
0001
0010
0100
1000
0100
0010
0001
1000
0100
0010
1000
0100
0010
,
0100
0010
0001
0010
0100
0010
0100
1000
0001
0010
0100
0010
0001
0100
0010
0100
,
0001
0010
1000
0100
1000
0010
1000
0010
0001
0100
0010
1000
0010
0100
0001
0010
,
0100
1000
0100
0010
0001
0100
0010
0001
1000
0100
0010
0100
1000
0001
0010
0100
,
0010
0100
1000
0100
0010
1000
0001
0010
0100
0010
0100
1000
0010
0100
0010
0100
,
0001
0010
1000
0100
1000
0100
0001
0100
0010
0100
0001
0010
0001
0010
0100
0010
,
0100
1000
0100
0010
0100
1000
0010
0100
0001
0010
0100
0010
0200
1000
0010
0001
,
1000
0010
1000
0001
0010
1000
0001
0010
0001
0010
1000
0001
0010
0001
1000
0010
,
1301
0000
0000
0001
0010
0100
0010
0100
1000
0001
0010
0001
0010
0100
1000
0100
,
1000
0100
0010
0001
0010
0100
0010
0100
1000
0100
0010
1000
0010
1000
0100
0010
,
0001
0100
0001
0100
0001
0010
0100
1000
0001
1000
0001
0010
0100
1000
0100
0010
,
0100
0010
0001
0010
0001
0010
0100
1000
0100
1000
0100
0010
1000
0010
0001
0010
,
0100
1000
0100
0001
0100
0001
0010
0100
1000
0001
1000
0100
0001
0100
1000
0001
,
0020
0001
1000
0100
0001
0100
0001
1000
0130
0000
0000
0100
1000
0100
0010
0001
,
0020
0001
1000
0100
1000
0001
0100
0001
0100
1000
0100
1000
0032
0100
0010
0100
,
1000
0100
0010
0100
1000
0010
0100
0010
0100
0010
0100
1000
0100
1000
0100
0010
,
1113
0000
0000
0000
0000
0220
0000
0000
,
0000
0000
0000
0000
0000
0000
0000
0000
0000
0000
0000
0000
1001
0000
1001
0330
,
1111
0000
1100
0010
0001
0100
0010
0001
,
1000
0100
0010
0001
0010
0100
0010
1100
,
0111
1000
0010
0100
0001
0010
0100
1000
,
0010
0101
1010
0100
0010
0100
1000
0100
,
0011
0100
0001
0010
0100
1000
0100
0010
,
0001
0010
0001
0010
0100
1000
0100
0011
,
1001
0100
0011
0100
1000
0010
0100
0010
,
1000
0101
1010
1001
0101
0110
1100
0011
,
1110
0001
0010
1000
0100
0010
0001
0010
,
0100
0010
0001
0010
0100
0010
0100
1100
,
0011
0100
0010
0001
0100
0010
0100
0001
,
0010
1100
1010
1010
0101
0101
1001
1001
,
1101
0010
0100
0001
0010
0100
0010
0100
,
1000
0001
1000
0100
0010
0001
1000
0110
,
1100
0010
0001
0010
0100
0010
0001
0010
,
2200
0011
0011
0011
0011
0011
0011
3311
,
1111
1000
0010
0100
,
1001
0010
0100
0010
,
0101
0010
1000
0100
,
0011
0000
0100
0000
0010
0000
1001
0110
,
1001
0100
0001
0100
,
0011
0100
0010
1000
,
0110
1000
0010
0200
,
0020
0000
0000
0000
1001
0000
0000
0000
1000
0000
0000
0000
0001
0000
0000
0330
,
1111
1000
0100
0010
0101
1000
0011
1000
,
0110
0001
0010
0001
0110
1000
0100
0010
,
0101
0010
0001
0100
0011
1000
0101
0010
,
1001
0100
0010
0100
1000
0100
0010
1000
,
0101
1000
0010
0001
1100
0010
1001
0100
,
0011
1000
0010
0100
1010
0001
0010
0100
,
0011
1000
0100
0011
1100
0010
1001
0010
,
0101
0010
1100
0001
1010
0100
0010
1000
,
0111
1000
0010
0100
1001
0010
1100
0010
,
0101
0010
0100
1000
0011
0100
0010
0001
,
1110
0001
0010
0100
0011
0100
1001
0010
,
0101
0010
1000
0100
1010
0100
0001
0010
,
1101
0010
0100
0010
0101
1000
0011
0100
,
1010
0001
0100
0001
1010
0100
0010
1000
,
0011
0100
0001
0110
1100
0010
0101
0010
,
1100
0010
1001
0010
0001
0010
0100
1000
,
0202
0000
0000
0000
,
0000
1010
1313
0000
0101
0101
0111
0000
,
1111
0001
0010
1100
,
0011
0100
0010
0001
,
0110
0100
0010
0101
,
1100
0000
0000
0101
0110
0000
1000
0000
,
1011
0100
1000
0101
,
0011
0001
0010
0001
,
1110
1000
0100
1010
,
0101
0000
0000
0101
1010
1100
0011
0000
,
1101
0010
0100
0101
,
1010
0100
0010
0001
,
1100
1000
0100
0011
,
0101
1000
0010
0001
0100
0000
1000
0000
,
0101
0010
1000
0101
,
0011
0100
0010
1000
,
0111
0000
1000
0001
0010
1000
0100
0000
,
1001
0000
0010
0000
1000
0100
0100
1000
,
2011
0100
0010
0101
,
3110
0001
0010
0100
,
1001
0100
0010
1001
,
0110
0000
0000
1100
0110
0000
0001
0000
,
1102
0100
1000
0110
,
1013
0100
0010
0100
,
0011
0100
0010
1001
,
0101
0000
0010
0000
1000
0001
0001
1000
,
0211
0001
0010
1001
,
0311
1000
0100
0010
,
0101
0100
0010
0001
,
0110
0100
0010
0010
0100
0000
0001
0000
,
0111
1000
0100
1010
,
0101
1000
0100
0010
,
1101
0000
0010
0101
1100
0000
0001
0000
,
2201
0000
0011
0000
0001
0000
0010
0000
0011
0000
0000
0000
0001
0000
0000
3300
,
1111
0000
0000
1000
0100
0010
0100
1000
0010
0100
1000
0001
1010
0100
1000
0010
,
1100
0010
0001
0100
0010
0100
0010
1000
0100
0010
0100
0010
0001
1000
0100
1000
,
0110
0001
0010
0100
1000
0001
0010
0001
0010
1000
0010
0100
0011
0100
1000
0100
,
1001
0010
0100
1000
0100
0010
0001
0100
0010
0001
0100
0010
0100
1000
0010
0100
,
1011
0100
0010
0001
0010
0100
1000
0100
0010
0001
0100
0010
1001
0100
0010
0001
,
1010
0100
1000
0010
0100
1000
0010
0100
0001
0100
1000
0100
1000
0001
0010
0100
,
0011
0100
0010
1000
0100
0010
1100
0010
1001
0010
0001
0010
1100
0010
0100
0010
,
2001
0010
0100
0001
0010
0001
0100
0010
0001
0100
0010
0100
0001
0010
0100
0001
,
3111
0000
0010
0100
0010
0100
1000
0010
0100
0010
0100
1000
0011
0100
1000
0100
,
1001
0010
1000
0100
0010
1000
0100
0001
1000
0010
0001
1000
0010
0100
0010
1000
,
0111
0000
0100
0010
0001
0010
0100
0010
0100
1000
0010
0100
1010
0100
0010
1000
,
0101
0010
1000
0100
0001
0010
0100
1000
0010
0100
0001
0100
0010
0001
1000
0100
,
1011
0000
0001
0010
0001
0010
0100
1000
0100
1000
0100
0010
1001
0010
0100
1000
,
0102
0010
1000
0100
0010
0100
0010
0100
1013
0000
0000
0100
0010
0001
1000
0100
,
0011
0100
1001
0010
0100
0010
0101
1000
0011
0100
1000
0100
0021
0100
1001
0100
,
0001
1000
0101
1000
0101
1000
0100
0001
1100
0001
1000
0100
1000
0100
0001
0100
,
1131
0000
2100
0010
0100
0001
0010
0100
0001
0010
0001
0100
0010
0001
0100
0010
,
0100
0010
0001
0010
0100
0001
0010
0100
0001
0010
0001
0100
0010
0001
0010
0100
,
3211
1000
0001
0010
0001
0010
1000
0010
0001
0010
0001
1000
0010
1000
0010
0001
,
1000
0010
1000
0001
0010
0001
1000
0010
1000
0001
0010
0001
1000
0010
1000
0010
,
1321
0100
1000
0100
0001
1000
0100
1000
0100
0001
0100
0001
0100
1000
0001
0100
,
1000
0100
0001
0100
1000
0100
0001
1000
0100
1000
0001
0100
1000
0100
0001
0100
,
1132
0010
0100
0010
1000
0100
0010
1000
0100
1000
0010
0100
0010
1000
0100
1000
,
0010
0100
0010
1000
0100
0010
0100
1000
0010
0100
1000
0100
0010
1000
0100
1000
,
1123
0001
1000
0100
1000
0001
0100
0001
1000
0100
1000
0001
1100
0001
0100
1000
,
0101
1000
0100
0001
0100
0001
1000
0100
0001
1000
0100
1000
0001
0100
1000
0001
,
1231
0010
1000
0001
0010
0001
1000
0010
1000
0001
0010
0001
1010
0001
1000
0010
,
1001
0010
0001
1000
0010
0001
1000
0010
1000
0001
0010
0001
1000
0010
1000
0001
,
2311
0100
0010
0100
0001
0010
0001
0010
0100
0010
0001
0010
0101
0010
0100
0001
,
0110
0001
0100
0010
0100
0001
0010
0100
3011
0000
1000
0100
0010
0100
0010
1000
,
0110
0001
1010
0100
0010
0100
1001
0010
0101
1000
0100
0010
0100
0010
0001
0010
,
1002
0100
1010
0100
1010
0100
0010
0100
0010
1000
0100
0010
0100
1000
0100
0010
,
1113
0000
0001
0010
0100
0010
0100
1000
0010
0100
0010
0001
0011
0100
1000
0100
,
0110
0100
0010
0001
0010
1000
0100
0010
0001
0010
0001
0100
0010
1000
0100
0001
,
1011
0000
0010
0100
1000
0001
0010
0100
1000
0010
0100
1000
1100
0010
0001
0100
,
0110
0010
0100
1000
0101
0100
1000
0100
0010
0001
0100
0010
0100
1000
0001
0010
,
1110
1000
0010
0100
1000
0100
0010
0001
0010
0100
0001
0010
1010
0100
0010
0001
,
1001
0100
0010
0001
0010
0100
0010
0100
0001
0010
1000
0100
0010
0001
0100
0010
,
1011
0100
0010
0100
0010
0001
1010
0100
1001
0100
0010
1000
0101
0010
0100
0010
,
1001
0100
0010
0001
0010
0100
1000
0010
0100
0001
0010
0100
0010
0100
1000
0100
,
0111
1000
0010
0100
1000
0001
0010
0100
1000
0100
0010
0100
1010
0100
1000
0100
,
0101
0001
0100
0010
1000
0100
0010
0100
0001
0010
0100
0010
1000
0100
1000
0100
,
1011
1000
0100
0010
0100
0001
0010
0100
0010
1000
0100
1000
1010
0100
1000
0100
,
0011
0001
0010
0001
1100
0010
0100
1000
0100
0010
0001
0010
0100
0010
0100
1000
,
1011
1000
0010
0100
0001
0010
0100
0010
0100
1000
0010
1000
0101
0010
0001
0100
,
2100
0100
0010
0100
0010
0001
0100
0010
3101
0000
0000
0100
1000
0100
0010
0001
,
1010
0100
1000
0001
0010
0100
1001
0100
1010
0001
0100
0010
1001
1000
0100
0010
,
0011
0001
0010
0100
1000
0100
0010
0100
0010
0001
0010
0100
1000
0100
0010
0100
,
1122
0000
0000
0000
,
0000
0000
0000
2200
0033
0000
0000
0000
,
0000
3300
0000
0000
;

//---------------dance-single - ----------------
#NOTES:
     dance-single:
     :
     Medium:
     1:
     0.000,0.000,0.000,0.000,0.000,0.000,0.000,0.000,0.000,0.000:
0000
0000
0000
0000
;

//---------------dance-single - ----------------
#NOTES:
     dance-single:
     :
     Easy:
     1:
     0.000,0.000,0.000,0.000,0.000,0.000,0.000,0.000,0.000,0.000:
0000
0000
0000
0000
;
